查看: 325|回复: 4
收起左侧

[自抓精品] [百度] [渣抓掃] [EAC] [160406] 映画『ちはやふる』オリジナル・サウンドトラック/横山克 (wav+cue+log+TIFF) [545MB]

[复制链接]

2

主题

12

帖子

685

积分

用户组:萌入心扉

节操
335
资币
377
萌点
7752
活跃
546
贡献
98
推广
0
在线时间
180 小时
注册时间
2015-11-28
发表于 2016-10-15 18:53:37 | 显示全部楼层 |阅读模式
克叔最近奶粉錢也是拼命賺阿233

來張電影劇照




登録情報
CD (2016/4/6)
ディスク枚数: 1
フォーマット: Soundtrack
レーベル: ユニバーサル ミュージック
収録時間: 69 分
ASIN: B01C7HYOS2
EAN: 4988031146194

<競技かるた>に懸ける少女の≪情熱・夢・恋≫を感動の二部作で描く、青春超大作、
映画『ちはやふる』(出演:広瀬すず、野村周平、真剣佑)のオリジナル・サウンドトラック。
映画を鮮やかに彩る音楽は、映画、ドラマ、CM音楽を数多く手掛ける横山克が担当。
映画『ちはやふる』を鮮やかに彩る音楽を存分に収録。


預覽圖


収録曲:
01.つながれ つながれ! つながれ!!
02.だるまさんが・・
03.屋上で聞こえた声
04.かるた部をやろうよ
05.三人での記憶
06.ありがとう。かるたを一緒にしてくれて
07.千早のかるた
08.帰り道でのおんぶ
09.かるた部、、ふぁいと・・
10.四人目の部員
11.五人目の部員
12.はじめてかるたを教えてくれたひと
13.もしもし、元気?
14.かるたを学ぼう
15.強化合宿
16.言わないって言ったのに・・・
17.新って、どんな人・・?
18.S
19.優勝への道
20.あと◯◯日
21.百人一首と人の思い  
22.ありがとう。かるたを好きでいてくれて
23.原田先生と太一
24.こんな気持ちにならなかったのに・・
25.瑞沢一勝!
26.運命を
27.変えたい
28.情熱がくれたもの
29.その瞬間
30.理由
31.肉まん君
32.圧倒的なかるた
33.気持ちの整理
34.馬鹿は・・一人で十分!
35.おかえり
36.目の前が・・・。
37.個人戦だけど、団体戦
38.かるたが楽しかった時
39.その先に見える世界

LOG:
Exact Audio Copy V1.1 from 23. June 2015

EAC extraction logfile from 28. May 2016, 10:58

Unknown Artist / Unknown Title

Used drive  : PIONEER BD-RW   BDR-209M   Adapter: 1  ID: 0

Read mode               : Secure
Utilize accurate stream : Yes
Defeat audio cache      : Yes
Make use of C2 pointers : No

Read offset correction                      : 667
Overread into Lead-In and Lead-Out          : No
Fill up missing offset samples with silence : Yes
Delete leading and trailing silent blocks   : No
Null samples used in CRC calculations       : Yes
Used interface                              : Native Win32 interface for Win NT & 2000

Used output format : Internal WAV Routines
Sample format      : 44.100 Hz; 16 Bit; Stereo


TOC of the extracted CD

     Track |   Start  |  Length  | Start sector | End sector
    ---------------------------------------------------------
        1  |  0:00.00 |  3:04.32 |         0    |    13831   
        2  |  3:04.32 |  1:00.57 |     13832    |    18388   
        3  |  4:05.14 |  0:42.60 |     18389    |    21598   
        4  |  4:47.74 |  1:04.19 |     21599    |    26417   
        5  |  5:52.18 |  1:11.53 |     26418    |    31795   
        6  |  7:03.71 |  1:00.19 |     31796    |    36314   
        7  |  8:04.15 |  1:37.63 |     36315    |    43652   
        8  |  9:42.03 |  2:58.37 |     43653    |    57039   
        9  | 12:40.40 |  0:57.19 |     57040    |    61333   
       10  | 13:37.59 |  0:43.28 |     61334    |    64586   
       11  | 14:21.12 |  1:07.38 |     64587    |    69649   
       12  | 15:28.50 |  2:39.21 |     69650    |    81595   
       13  | 18:07.71 |  1:57.14 |     81596    |    90384   
       14  | 20:05.10 |  1:07.19 |     90385    |    95428   
       15  | 21:12.29 |  0:48.20 |     95429    |    99048   
       16  | 22:00.49 |  0:38.34 |     99049    |   101932   
       17  | 22:39.08 |  2:03.23 |    101933    |   111180   
       18  | 24:42.31 |  1:03.32 |    111181    |   115937   
       19  | 25:45.63 |  1:30.20 |    115938    |   122707   
       20  | 27:16.08 |  2:00.07 |    122708    |   131714   
       21  | 29:16.15 |  1:43.20 |    131715    |   139459   
       22  | 30:59.35 |  1:23.49 |    139460    |   145733   
       23  | 32:23.09 |  3:01.02 |    145734    |   159310   
       24  | 35:24.11 |  1:33.18 |    159311    |   166303   
       25  | 36:57.29 |  3:41.58 |    166304    |   182936   
       26  | 40:39.12 |  1:48.02 |    182937    |   191038   
       27  | 42:27.14 |  2:01.58 |    191039    |   200171   
       28  | 44:28.72 |  2:05.47 |    200172    |   209593   
       29  | 46:34.44 |  2:00.61 |    209594    |   218654   
       30  | 48:35.30 |  2:24.47 |    218655    |   229501   
       31  | 51:00.02 |  0:57.23 |    229502    |   233799   
       32  | 51:57.25 |  1:52.37 |    233800    |   242236   
       33  | 53:49.62 |  1:51.05 |    242237    |   250566   
       34  | 55:40.67 |  1:32.65 |    250567    |   257531   
       35  | 57:13.57 |  2:26.49 |    257532    |   268530   
       36  | 59:40.31 |  1:00.34 |    268531    |   273064   
       37  | 60:40.65 |  2:45.16 |    273065    |   285455   
       38  | 63:26.06 |  3:16.24 |    285456    |   300179   
       39  | 66:42.30 |  2:17.73 |    300180    |   310527   


Range status and errors

Selected range

     Filename F:\Users\ST30073\Desktop\抓\UPCH - 2076.wav

     Peak level 98.8 %
     Extraction speed 8.0 X
     Range quality 99.9 %
     Copy CRC AEBB9913
     Copy OK

No errors occurred

End of status report

---- CUETools DB Plugin V2.1.6

[CTDB TOCID: vqppH7.ZlVz5Ha_mCVHMseBUBKo-] disk not present in database
Submit result: vqppH7.ZlVz5Ha_mCVHMseBUBKo- has been uploaded


==== Log checksum 5CBE26CFCB415DBCDBBDDBB9CEA244782ED65E7D3CBAA1858576952B882BFFBA ====



rar內有附註ST30073@astost/2dgal/tsdm/mddmm,分流請標註!! 禁止直接載點轉載!!
购买主题 已有 5 人购买  本主题需向作者支付 10 资币 才能浏览

15

主题

116

帖子

545

积分

用户组:萌入心扉

节操
25
资币
467
萌点
1812
活跃
462
贡献
113
推广
0
在线时间
71 小时
注册时间
2016-2-5

妮可最佳新人小埋我的妹妹我爱美少女栗山未来若狭悠里若菜羽衣海老名白雪公主左苍慈hentai来了大家快跑

发表于 2016-10-15 23:43:42 | 显示全部楼层
扫碟dalao!感谢分享!

5

主题

146

帖子

1513

积分

用户组:萌然大悟

节操
280
资币
726
萌点
11300
活跃
1356
贡献
103
推广
0
在线时间
461 小时
注册时间
2015-6-22
发表于 2016-10-16 10:46:38 | 显示全部楼层
看封面就想收。。。

19

主题

656

帖子

2112

积分

用户组:萌然大悟

Level5 风暴指挥官

节操
20
资币
292
萌点
9650
活跃
1956
贡献
128
推广
2
在线时间
329 小时
注册时间
2016-6-28

最佳新人小埋我的妹妹妮可我爱美少女海老名若菜羽衣若狭悠里白雪公主左苍慈栗山未来灌水之王活跃会员音乐天使西木野真姬hentai来了大家快跑

发表于 2016-10-28 16:37:41 | 显示全部楼层
封面图加载不出来、、、
立梦之巅,华音伊奏

0

主题

104

帖子

1222

积分

用户组:萌音我爱

节操
3
资币
436
萌点
12924
活跃
1300
贡献
0
推广
0
在线时间
468 小时
注册时间
2014-4-16
发表于 2016-10-28 23:07:32 | 显示全部楼层
ST大大出现了!赶紧投掷大师球!
您需要登录后才可以回帖 登录 | 欢迎注册

本版积分规则

手机版|萌动动漫论坛 ( 鄂ICP备14000601号 )

JS of wanmeiff.com and vcpic.com Please keep this copyright information, respect of, thank you!JS of wanmeiff.com and vcpic.com Please keep this copyright information, respect of, thank you!

GMT+8, 2016-12-8 10:02 , Processed in 0.037182 second(s), 18 queries , Gzip On, Redis On.

Powered by Discuz! X3.1 Designed by 999test.cn

© 2001-2013 Comsenz Inc.

鄂公网安备 42062502000002号