查看: 151|回复: 2
收起左侧

[动漫音乐] [BD][自抓][160928] 暗殺教室 ベストアルバム ~Music Memories~*初回生産限定盤(2wav+2cue+2log+DVD)[592M+645M+1044M]

[复制链接]

11

主题

241

帖子

3018

积分

用户组:歃血为萌

节操
930
资币
1476
萌点
36932
活跃
3140
贡献
388
推广
1
在线时间
537 小时
注册时间
2014-7-30

最佳新人我爱美少女我的妹妹妮可小埋

发表于 2016-11-13 14:21:22 | 显示全部楼层 |阅读模式

登录信息
CD (2016/9/28)
光碟数目: 3
フォーマット: Limited Edition, CD+DVD
レーベル: エイベックス・ピクチャーズ株式会社(Music)
収録時間: 123 分
ASIN: B01I63IJKK
EAN: 4562475271287

曲目リスト

ディスク:1
  1. 青春サツバツ論
  2. 自力本願レボリューション
  3. Hello, shooting-star
  4. QUESTION
  5. 欠けた月
  6. バイバイ YESTERDAY
  7. また君に会える日
  8. 月光
  9. 旅立ちのうた
  10. 卒業証書
  11. NuruNuru Rap
  12. ころたいそう
  13. 3年E組ヌルヌル音頭

ディスク:2
  1. ヒーロー HOLDING OUT FOR A HERO
  2. POISON ~言いたい事も言えないこんな世の中は~
  3. ぼくの先生はフィーバー
  4. 学園天国
  5. 千本桜
  6. 狙いうち
  7. BOY MEETS GIRL
  8. Hello, shooting-star
  9. 青春サツバツ論 -渚&茅野 ver.-
  10. 青春サツバツ論 -渚&業 ver.-
  11. 青春サツバツ論 -3年E組修学旅行4班(渚&茅野&業&杉野&神崎&奥田)ver.-
  12. 青春サツバツ論 -磯貝&前原 ver.-
  13. 自力本願レボリューション -渚&業 ver.-
  14. 自力本願レボリューション -磯貝&前原 ver.-
  15. 自力本願レボリューション -渚&茅野 ver.-
  16. 自力本願レボリューション -渚 ver.-

ディスク:3
  1. 青春サツバツ論 (ノンテロップオープニング映像)
  2. 自力本願レボリューション (ノンテロップオープニング映像 ver.1)
  3. 自力本願レボリューション (ノンテロップオープニング映像 ver.2)
  4. Hello, shooting-star (ノンテロップエンディング映像)
  5. QUESTION (ノンテロップオープニング映像 ver.1)
  6. QUESTION (ノンテロップオープニング映像 ver.2)
  7. 欠けた月 (ノンテロップエンディング映像)
  8. バイバイ YESTERDAY (ノンテロップオープニング映像)
  9. また君に会える日 (ノンテロップエンディング映像 ver.1)
  10. また君に会える日 (ノンテロップエンディング映像 ver.2)
添加5%恢复记录!!!
有问题........PM,听完请立即删除!!!!!!
购买主题 已有 2 人购买  本主题需向作者支付 25 资币 才能浏览

11

主题

241

帖子

3018

积分

用户组:歃血为萌

节操
930
资币
1476
萌点
36932
活跃
3140
贡献
388
推广
1
在线时间
537 小时
注册时间
2014-7-30

最佳新人我爱美少女我的妹妹妮可小埋

 楼主| 发表于 2016-11-13 15:07:53 | 显示全部楼层
Exact Audio Copy V1.3 from 2. September 2016

EAC extraction logfile from 14. October 2016, 16:33

- / 暗殺教室 ベストアルバム ~Music Memories~(DISC1)

Used drive  : SlimtypeDVD A  DS8A4S   Adapter: 1  ID: 0

Read mode               : Secure
Utilize accurate stream : Yes
Defeat audio cache      : Yes
Make use of C2 pointers : No

Read offset correction                      : 6
Overread into Lead-In and Lead-Out          : No
Fill up missing offset samples with silence : Yes
Delete leading and trailing silent blocks   : No
Null samples used in CRC calculations       : Yes
Used interface                              : Native Win32 interface for Win NT & 2000

Used output format : Internal WAV Routines
Sample format      : 44.100 Hz; 16 Bit; Stereo


TOC of the extracted CD

     Track |   Start  |  Length  | Start sector | End sector
    ---------------------------------------------------------
        1  |  0:00.00 |  3:45.25 |         0    |    16899   
        2  |  3:45.25 |  4:41.07 |     16900    |    37981   
        3  |  8:26.32 |  4:41.48 |     37982    |    59104   
        4  | 13:08.05 |  4:29.55 |     59105    |    79334   
        5  | 17:37.60 |  4:54.20 |     79335    |   101404   
        6  | 22:32.05 |  4:12.45 |    101405    |   120349   
        7  | 26:44.50 |  4:40.45 |    120350    |   141394   
        8  | 31:25.20 |  4:57.47 |    141395    |   163716   
        9  | 36:22.67 |  6:07.03 |    163717    |   191244   
       10  | 42:29.70 |  5:03.22 |    191245    |   213991   
       11  | 47:33.17 |  3:36.03 |    213992    |   230194   
       12  | 51:09.20 |  4:35.17 |    230195    |   250836   
       13  | 55:44.37 |  2:58.48 |    250837    |   264234   


Range status and errors

Selected range

     Filename C:\Users\Administrator\Desktop\暗殺教室 ベストアルバム ~Music Memories~(DISC1).wav

     Peak level 100.0 %
     Extraction speed 4.3 X
     Range quality 100.0 %
     Copy CRC 22D516DC
     Copy OK

No errors occurred

End of status report

---- CUETools DB Plugin V2.1.6

[CTDB TOCID: 5KBUNTY.pXSXC8A.kxuqb8hW70M-] found
Submit result: 5KBUNTY.pXSXC8A.kxuqb8hW70M- has been confirmed
Track | CTDB Status
  1   | (1/1) Accurately ripped
  2   | (1/1) Accurately ripped
  3   | (1/1) Accurately ripped
  4   | (1/1) Accurately ripped
  5   | (1/1) Accurately ripped
  6   | (1/1) Accurately ripped
  7   | (1/1) Accurately ripped
  8   | (1/1) Accurately ripped
  9   | (1/1) Accurately ripped
10   | (1/1) Accurately ripped
11   | (1/1) Accurately ripped
12   | (1/1) Accurately ripped
13   | (1/1) Accurately ripped


==== Log checksum DF948732FD032F49A6D3CC1E069279A997065231CF984F913F2D8B9B881ED439 ====

11

主题

241

帖子

3018

积分

用户组:歃血为萌

节操
930
资币
1476
萌点
36932
活跃
3140
贡献
388
推广
1
在线时间
537 小时
注册时间
2014-7-30

最佳新人我爱美少女我的妹妹妮可小埋

 楼主| 发表于 2016-11-13 15:09:06 | 显示全部楼层
Exact Audio Copy V1.3 from 2. September 2016

EAC extraction logfile from 14. October 2016, 17:06

- / 暗殺教室 ベストアルバム ~Music Memories~(DISC2)

Used drive  : SlimtypeDVD A  DS8A4S   Adapter: 1  ID: 0

Read mode               : Secure
Utilize accurate stream : Yes
Defeat audio cache      : Yes
Make use of C2 pointers : No

Read offset correction                      : 6
Overread into Lead-In and Lead-Out          : No
Fill up missing offset samples with silence : Yes
Delete leading and trailing silent blocks   : No
Null samples used in CRC calculations       : Yes
Used interface                              : Native Win32 interface for Win NT & 2000

Used output format : Internal WAV Routines
Sample format      : 44.100 Hz; 16 Bit; Stereo


TOC of the extracted CD

     Track |   Start  |  Length  | Start sector | End sector
    ---------------------------------------------------------
        1  |  0:00.00 |  4:52.45 |         0    |    21944   
        2  |  4:52.45 |  4:00.35 |     21945    |    39979   
        3  |  8:53.05 |  3:07.02 |     39980    |    54006   
        4  | 12:00.07 |  2:36.00 |     54007    |    65706   
        5  | 14:36.07 |  4:04.25 |     65707    |    84031   
        6  | 18:40.32 |  2:22.25 |     84032    |    94706   
        7  | 21:02.57 |  4:25.08 |     94707    |   114589   
        8  | 25:27.65 |  4:43.30 |    114590    |   135844   
        9  | 30:11.20 |  3:46.02 |    135845    |   152796   
       10  | 33:57.22 |  3:46.03 |    152797    |   169749   
       11  | 37:43.25 |  3:46.17 |    169750    |   186716   
       12  | 41:29.42 |  3:46.23 |    186717    |   203689   
       13  | 45:15.65 |  4:40.47 |    203690    |   224736   
       14  | 49:56.37 |  4:40.53 |    224737    |   245789   
       15  | 54:37.15 |  4:40.50 |    245790    |   266839   
       16  | 59:17.65 |  4:37.53 |    266840    |   287667   


Range status and errors

Selected range

     Filename C:\Users\Administrator\Desktop\暗殺教室 ベストアルバム ~Music Memories~(DISC2).wav

     Peak level 99.4 %
     Extraction speed 4.8 X
     Range quality 99.9 %
     Copy CRC 4501C711
     Copy OK

No errors occurred

End of status report

---- CUETools DB Plugin V2.1.6

[CTDB TOCID: XXG7ysS0XnuQQwmK0iwvNuwlFaA-] found
Submit result: XXG7ysS0XnuQQwmK0iwvNuwlFaA- has been confirmed
Track | CTDB Status
  1   | (1/1) Accurately ripped
  2   | (1/1) Accurately ripped
  3   | (1/1) Accurately ripped
  4   | (1/1) Accurately ripped
  5   | (1/1) Accurately ripped
  6   | (1/1) Accurately ripped
  7   | (1/1) Accurately ripped
  8   | (1/1) Accurately ripped
  9   | (1/1) Accurately ripped
10   | (1/1) Accurately ripped
11   | (1/1) Accurately ripped
12   | (1/1) Accurately ripped
13   | (1/1) Accurately ripped
14   | (1/1) Accurately ripped
15   | (1/1) Accurately ripped
16   | (1/1) Accurately ripped


==== Log checksum 20EDD52ECDAA2C280D578E05C88189B8C7BD94F5404B5E86C512B8702532DFE5 ====
您需要登录后才可以回帖 登录 | 欢迎注册

本版积分规则

手机版|萌动动漫论坛 ( 鄂ICP备14000601号 )

JS of wanmeiff.com and vcpic.com Please keep this copyright information, respect of, thank you!JS of wanmeiff.com and vcpic.com Please keep this copyright information, respect of, thank you!

GMT+8, 2016-12-7 00:03 , Processed in 0.029885 second(s), 15 queries , Gzip On, Redis On.

Powered by Discuz! X3.1 Designed by 999test.cn

© 2001-2013 Comsenz Inc.

鄂公网安备 42062502000002号