查看: 108|回复: 1
收起左侧

[动漫音乐] [BD][自抓][160921] 「End of the World」/熊木杏里(wav+cue+log)[252M]

[复制链接]

11

主题

241

帖子

3015

积分

用户组:歃血为萌

节操
930
资币
1485
萌点
36842
活跃
3137
贡献
388
推广
1
在线时间
535 小时
注册时间
2014-7-30

最佳新人我爱美少女我的妹妹妮可小埋

发表于 2016-11-13 14:31:12 | 显示全部楼层 |阅读模式

登录信息
CD (2016/9/21)
光碟数目: 1
フォーマット: Single, Maxi
レーベル: アニプレックス
収録時間: 25 分
ASIN: B01ICTAXXO
EAN: 4933032008910

曲目リスト
ディスク:1
  1. End of the World
  2. へたくそな唄
  3. End of the World (TVsize)
  4. End of the World (Instrumental)
  5. へたくそな唄 (Instrumental)

添加5%恢复记录!!!
有问题........PM,听完请立即删除!!!!!!
购买主题 已有 3 人购买  本主题需向作者支付 10 资币 才能浏览

11

主题

241

帖子

3015

积分

用户组:歃血为萌

节操
930
资币
1485
萌点
36842
活跃
3137
贡献
388
推广
1
在线时间
535 小时
注册时间
2014-7-30

最佳新人我爱美少女我的妹妹妮可小埋

 楼主| 发表于 2016-11-13 15:10:00 | 显示全部楼层
Exact Audio Copy V1.3 from 2. September 2016

EAC extraction logfile from 14. October 2016, 17:22

熊木杏里 / End of the World

Used drive  : SlimtypeDVD A  DS8A4S   Adapter: 1  ID: 0

Read mode               : Secure
Utilize accurate stream : Yes
Defeat audio cache      : Yes
Make use of C2 pointers : No

Read offset correction                      : 6
Overread into Lead-In and Lead-Out          : No
Fill up missing offset samples with silence : Yes
Delete leading and trailing silent blocks   : No
Null samples used in CRC calculations       : Yes
Used interface                              : Native Win32 interface for Win NT & 2000

Used output format : Internal WAV Routines
Sample format      : 44.100 Hz; 16 Bit; Stereo


TOC of the extracted CD

     Track |   Start  |  Length  | Start sector | End sector
    ---------------------------------------------------------
        1  |  0:00.00 |  5:15.08 |         0    |    23632   
        2  |  5:15.08 |  6:27.42 |     23633    |    52699   
        3  | 11:42.50 |  1:34.25 |     52700    |    59774   
        4  | 13:17.00 |  5:13.64 |     59775    |    83313   
        5  | 18:30.64 |  6:29.17 |     83314    |   112505   


Range status and errors

Selected range

     Filename C:\Users\Administrator\Desktop\熊木杏里 - End of the World.wav

     Peak level 98.8 %
     Extraction speed 3.6 X
     Range quality 100.0 %
     Copy CRC 5B6F1908
     Copy OK

No errors occurred

End of status report

---- CUETools DB Plugin V2.1.6

[CTDB TOCID: WxD5CTcrIZS3Ix3xxHBCYUgH1sY-] found
Submit result: WxD5CTcrIZS3Ix3xxHBCYUgH1sY- has been confirmed
Track | CTDB Status
  1   | (29/29) Accurately ripped
  2   | (29/29) Accurately ripped
  3   | (29/29) Accurately ripped
  4   | (29/29) Accurately ripped
  5   | (29/29) Accurately ripped


==== Log checksum F3310BB3761FBC1649F62684D88B88BA18D1D64FCA383C2DB59953197A5F9934 ====
您需要登录后才可以回帖 登录 | 欢迎注册

本版积分规则

手机版|萌动动漫论坛 ( 鄂ICP备14000601号 )

JS of wanmeiff.com and vcpic.com Please keep this copyright information, respect of, thank you!JS of wanmeiff.com and vcpic.com Please keep this copyright information, respect of, thank you!

GMT+8, 2016-12-4 11:50 , Processed in 0.102382 second(s), 18 queries , Gzip On, Redis On.

Powered by Discuz! X3.1 Designed by 999test.cn

© 2001-2013 Comsenz Inc.

鄂公网安备 42062502000002号