查看: 254|回复: 1
收起左侧

[自抓精品] [EAC][161130]TVアニメ「ブブキブランキ 星の巨人」エンディングテーマ「so beautiful ;- )」[WAV+CUE+LOG]

[复制链接]

995

主题

3621

帖子

3万

积分

用户组:管理员

科学国水群461424470,谢绝小学生和伸手党

节操
4826
资币
5379
萌点
78420
活跃
17885
贡献
9370
推广
7975
在线时间
2256 小时
注册时间
2013-7-26

最佳新人活跃会员热心会员推广达人宣传达人灌水之王突出贡献优秀版主荣誉管理论坛元老萌动一周年庆勋章我爱美少女我的妹妹妮可栗山未来小埋若菜羽衣若狭悠里海老名白雪公主左苍慈

发表于 2016-12-1 01:34:13 | 显示全部楼层 |阅读模式

CD (2016/11/30)
ディスク枚数: 1
フォーマット: Single, Maxi
レーベル: メディアファクトリー
収録時間: 22 分
ASIN: B01M02UUOZ
EAN: 4935228162055

2016年10月スタートのTVアニメ「ブブキブランキ 星の巨人」より、万流礼央子(CV:潘めぐみ)が歌うOPテーマ&種臣静流(CV:小松未可子)が歌うEDテーマが同時リリース!

★TVアニメ「ブブキブランキ」の続編、「ブブキブランキ 星の巨人」が2016年10月より放送開始!
TVアニメ「蒼き鋼のアルペジオ -アルスノヴァ-」をはじめ、「009 RE:CYBORG」など3DCG による新たなる映像表現に挑戦するアニメスタジオサンジゲン。
その10周年の節目となる2016年に生み出された、フルCGによるオリジナルアニメーション「ブブキブランキ」。数々の謎を残したまま最終回を迎えた本作の続編が、
更にパワーアップした映像表現、舞台を台湾に移してのより壮大なストーリーとなって、遂に始動する! 「ブブキブランキ 星の巨人」は2016年10月よりTVアニメ放送開始!

★TVアニメ「ブブキブランキ 星の巨人」エンディングテーマは種臣静流(CV:小松未可子)によるキャラクターソング!
TVアニメ「ブブキブランキ 星の巨人」エンディングテーマを担当するのは、声優アーティストとして活躍する小松未可子が演じる、主人公0希東とともに戦う謎多き天才種臣静流が歌うキャラクターソング!
DJ系シンガーソングライター“fu_mou"による壮大さと静けさをたたえたメロディックな1曲!

★ジャケットはアニメ描き下ろし仕様!

【収録内容】
TVアニメ「ブブキブランキ 星の巨人」エンディングテーマ「so beautiful ;- )」ほか、
上記のInstrumentalと横山克による「ブブキブランキ」劇伴などを含む全5曲収録。

【TV放送情報】
2016年10月よりTVアニメ放送開始!
◆AT-X:10月1日より毎週土曜日 21:30~
《リピート放送》毎週日曜日 25:30~/毎週火曜日 13:30~/毎週金曜日 5:30~
◆TOKYO MX :10月1日より毎週土曜日 22:00~
◆KBS京都:10月1日より毎週土曜日 25:30~
◆テレビ愛知:10月1日より毎週土曜日 26:50~
◆サンテレビ:10月2日より毎週日曜日 25:30~
◆BS11:10月2日より毎週日曜日 25:30~

【ストーリー概要】
兄は 妹は 戦う、星を守る。

宝島でのブブキ使いたちとの戦いを潜り抜け、島の落下による未曽有の大被害をブランキ"王舞"で防いだ東たち。
戦いを繰り広げながらも共に島の落下を防いだ万流礼央子、そして四天王の生死は?
海外ブブキ使いたちと、裏で暗躍する東の双子の妹薫子の目的は?そして汀の行方は…?

【メインスタッフ】
◆原作: Quadrangle
◆監督: 小松田大全
◆キャラクターデザイン: コザキユースケ
◆ブランキデザイン: 吉川達哉
◆ブブキデザイン: あさぎり
◆シリーズ構成脚本:イシイジロウ, 北島行徳, 小松田大全
◆メカニックデザイン: 高倉武史
◆プロップデザイン: 岩永悦宜
◆サブキャラクターデザイン: 尾崎智美
◆ビジュアルデザイン: 有馬トモユキ, 瀬島卓也
◆CGスーパーバイザー: 鈴木大介
◆モデリングディレクター: 足立博志
◆テクニカルディレクター: 金田剛久, 小嶋理子
◆アニメーションディレクター:植高正典, 石川真平, 三村厚史, 中村基樹

【メインキャスト】
◆一希東: 小林裕介
◆朝吹黄金: 小澤亜李
◆野々柊: 斉藤壮馬
◆扇木乃亜: 石上静香
◆種臣静流: 小松未可子
◆万流礼央子: 潘めぐみ
◆的場井周作: 津田健次郎
◆間絶美: 日笠陽子
◆新走宗也: 木村昴
◆石蕗秋人: 興津和幸
◆一希汀: 柚木涼香
◆一希明: 小山力也
◆一希薫子: 金元寿子 ほか

(c)Quadrangle / BBKBRNK Partners

収録曲:
1. so beautiful ;-)
2. 流路
3. 王舞
4. so beautiful ;-) (Non chanter)
5. 流路 (Non chanter)

log
  1. Exact Audio Copy V1.2 from 12. August 2016

  2. EAC extraction logfile from 1. December 2016, 0:03

  3. 小松未可子 / 「 ブブキブランキ 星の巨人 」エンディングテーマ「 so beautiful ;- ) 」

  4. Used drive  : PIONEER DVD-RW  DVR-221L   Adapter: 1  ID: 1

  5. Read mode               : Secure
  6. Utilize accurate stream : Yes
  7. Defeat audio cache      : No
  8. Make use of C2 pointers : Yes

  9. Read offset correction                      : 6
  10. Overread into Lead-In and Lead-Out          : No
  11. Fill up missing offset samples with silence : Yes
  12. Delete leading and trailing silent blocks   : No
  13. Null samples used in CRC calculations       : Yes
  14. Used interface                              : Native Win32 interface for Win NT & 2000

  15. Used output format : Internal WAV Routines
  16. Sample format      : 44.100 Hz; 16 Bit; Stereo


  17. TOC of the extracted CD

  18.     Track |   Start  |  Length  | Start sector | End sector
  19.    ---------------------------------------------------------
  20.        1  |  0:00.00 |  5:26.23 |         0    |    24472   
  21.        2  |  5:26.23 |  4:07.46 |     24473    |    43043   
  22.        3  |  9:33.69 |  2:58.08 |     43044    |    56401   
  23.        4  | 12:32.02 |  5:26.22 |     56402    |    80873   
  24.        5  | 17:58.24 |  4:04.01 |     80874    |    99174   


  25. Range status and errors

  26. Selected range

  27.     Filename N:\[Album][161130]小松未可子 - 「 ブブキブランキ 星の巨人 」エンディングテーマ「 so beautiful ;- ) 」[wav+log+cue+bk]\小松未可子 - 「 ブブキブランキ 星の巨人 」エンディングテーマ「 so beautiful ;- ) 」.wav

  28.     Peak level 99.7 %
  29.     Extraction speed 4.8 X
  30.     Range quality 100.0 %
  31.     Copy CRC E1E48323
  32.     Copy OK

  33. No errors occurred


  34. AccurateRip summary

  35. Track  1  not present in database
  36. Track  2  not present in database
  37. Track  3  not present in database
  38. Track  4  not present in database
  39. Track  5  not present in database

  40. None of the tracks are present in the AccurateRip database

  41. End of status report

  42. ---- CUETools DB Plugin V2.1.6

  43. [CTDB TOCID: 8qc41UEsIdUBOTW0zVHQ.wnDvyQ-] found
  44. Submit result: 8qc41UEsIdUBOTW0zVHQ.wnDvyQ- has been confirmed
  45. Track | CTDB Status
  46. 1   | (6/6) Accurately ripped
  47. 2   | (6/6) Accurately ripped
  48. 3   | (6/6) Accurately ripped
  49. 4   | (6/6) Accurately ripped
  50. 5   | (6/6) Accurately ripped


  51. ==== Log checksum 62C598C7C520E4884BB719FBF6869AB4185965C5EB18510109A2F8C53A448A8C ====
复制代码

因为碟子是日本留学朋友代抓,所以cue和文件名我后来给修正过(原来的ansi编码吞掉了一些字符)
因此wav名字和log会有不同,cue也做过一些修正,介意勿下,转载请注明出处.


下载地址:
购买主题 已有 4 人购买  本主题需向作者支付 15 资币 才能浏览
这货喜欢everying组合(
论坛挂名实际退休

4

主题

91

帖子

362

积分

用户组:萌情滋生

节操
10
资币
126
萌点
2154
活跃
351
贡献
3
推广
0
在线时间
88 小时
注册时间
2016-11-12

我的妹妹我爱美少女妮可小埋若菜羽衣若狭悠里海老名白雪公主左苍慈栗山未来最佳新人

发表于 2016-12-1 07:41:08 | 显示全部楼层
看的我是一脸懵逼
来自苹果客户端来自苹果客户端
您需要登录后才可以回帖 登录 | 欢迎注册

本版积分规则

手机版|萌动动漫论坛 ( 鄂ICP备14000601号 )

JS of wanmeiff.com and vcpic.com Please keep this copyright information, respect of, thank you!JS of wanmeiff.com and vcpic.com Please keep this copyright information, respect of, thank you!

GMT+8, 2017-1-21 08:03 , Processed in 0.034306 second(s), 20 queries , Gzip On, Redis On.

Powered by Discuz! X3.1 Designed by 999test.cn

© 2001-2013 Comsenz Inc.

鄂公网安备 42062502000002号