查看: 256|回复: 5
收起左侧

[动漫音乐] [百度XMEGA] [渣抓掃] [EAC] [170426] 「sin 七つの大罪」OP&ED「My Sweet Maiden & Welcome To ...」/Mia REGINA (wav+cue+log+TIFF) [277MB]

[复制链接]

27

主题

43

帖子

3112

积分

用户组:歃血为萌

节操
2760
资币
1374
萌点
20830
活跃
3101
贡献
453
推广
0
在线时间
318 小时
注册时间
2015-11-28
发表于 2017-5-21 00:33:51 | 显示全部楼层 |阅读模式

萌动很平凡,希望您能喜欢这里,速度舰个账号一起愉快地玩耍poi~

您需要 登录 才可以下载或查看,没有帐号?欢迎注册

x
退坑差不多了....






預覽圖



登録情報
CD (2017/4/26)
ディスク枚数: 1
フォーマット: Single, Maxi
レーベル: ランティス
収録時間: 16 分
ASIN: B06VTC9HC9
JAN: 4540774145959

2017年春放送TVアニメ『sin 七つの大罪』OP/EDテーマはMia REGINAが担当!OPテーマはこれまでの楽曲からガラリと変わって、ゴシックなテイストが聴く人を快楽へと誘う。EDテーマは、これぞまさに悪魔的楽曲!!作曲はデーモン閣下! (C)RS

収録曲:
01. My Sweet Maiden
02. Welcome To Our Diabolic Paradise
03. My Sweet Maiden (Instrumental)
04. Welcome To Our Diabolic Paradise (Instrumental)

LOG:
Exact Audio Copy V1.1 from 23. June 2015

EAC extraction logfile from 13. May 2017, 23:10

Mia REGINA / My Sweet Maiden / Welcome To Our Diabolic Paradise

Used drive  : PIONEER BD-RW   BDR-209M   Adapter: 1  ID: 0

Read mode               : Secure
Utilize accurate stream : Yes
Defeat audio cache      : Yes
Make use of C2 pointers : No

Read offset correction                      : 667
Overread into Lead-In and Lead-Out          : No
Fill up missing offset samples with silence : Yes
Delete leading and trailing silent blocks   : No
Null samples used in CRC calculations       : Yes
Used interface                              : Native Win32 interface for Win NT & 2000

Used output format : Internal WAV Routines
Sample format      : 44.100 Hz; 16 Bit; Stereo


TOC of the extracted CD

     Track |   Start  |  Length  | Start sector | End sector
    ---------------------------------------------------------
        1  |  0:00.00 |  4:36.19 |         0    |    20718   
        2  |  4:36.19 |  3:11.21 |     20719    |    35064   
        3  |  7:47.40 |  4:36.18 |     35065    |    55782   
        4  | 12:23.58 |  3:11.20 |     55783    |    70127   


Range status and errors

Selected range

     Filename F:\Users\ST30073\Desktop\抓\LACM - 14595.wav

     Peak level 97.7 %
     Extraction speed 6.0 X
     Range quality 100.0 %
     Copy CRC 7AE28303
     Copy OK

No errors occurred


AccurateRip summary

Track  1  not present in database
Track  2  not present in database
Track  3  not present in database
Track  4  not present in database

None of the tracks are present in the AccurateRip database

End of status report

---- CUETools DB Plugin V2.1.6

[CTDB TOCID: LAlvdGjX4STA3u0v31JVK0YtqNM-] found
Submit result: already submitted
Track | CTDB Status
  1   | (36/36) Accurately ripped
  2   | (36/36) Accurately ripped
  3   | (36/36) Accurately ripped
  4   | (36/36) Accurately ripped


==== Log checksum 52868892F46B7051601B134CE76824004E6325625093AE3883D5462F4C5A9E92 ====

載點:

游客,如果您要查看本帖隐藏内容请回复


歡迎分流,[email protected]/tsdm/mddmm


评分

参与人数 1节操 +100 资币 +15 萌点 +200 活跃 +100 贡献 +14 收起 理由
624322077 + 100 + 15 + 200 + 100 + 14 自购奖励

查看全部评分

1

主题

17

帖子

51

积分

用户组:萌懵懂懂

节操
10
资币
96
萌点
138
活跃
57
贡献
2
推广
2
在线时间
0 小时
注册时间
2017-6-3
发表于 2017-6-3 22:47:34 | 显示全部楼层
無損音源找很久了,感謝分享~

27

主题

43

帖子

3112

积分

用户组:歃血为萌

节操
2760
资币
1374
萌点
20830
活跃
3101
贡献
453
推广
0
在线时间
318 小时
注册时间
2015-11-28
 楼主| 发表于 2017-6-5 23:19:58 | 显示全部楼层
幻羽流年 发表于 2017-6-3 22:47
無損音源找很久了,感謝分享~

找很久?
我放TSDM基本上就是到處都有了
怎會找了很久

1

主题

18

帖子

58

积分

用户组:萌懵懂懂

节操
0
资币
13
萌点
399
活跃
64
贡献
0
推广
0
在线时间
7 小时
注册时间
2015-1-14
发表于 2017-6-6 09:06:02 | 显示全部楼层
AST最早放出的,现在到处都有了

0

主题

3

帖子

394

积分

用户组:萌情滋生

节操
10
资币
682
萌点
11833
活跃
391
贡献
1
推广
0
在线时间
194 小时
注册时间
2015-2-28
发表于 2017-6-7 19:50:58 | 显示全部楼层
总算找到了,谢谢楼主分享!!!

1

主题

25

帖子

-1万

积分

用户组:禁止访问

节操
-32770
资币
-92808
萌点
-77671
活跃
-8052
贡献
-7036
推广
0
在线时间
15 小时
注册时间
2017-6-13

小埋左苍慈白雪公主若菜羽衣若狭悠里海老名我的妹妹我爱美少女栗山未来妮可

发表于 2017-6-13 19:22:49 | 显示全部楼层
大佬稳,佩服66666
您需要登录后才可以回帖 登录 | 欢迎注册

本版积分规则

手机版|萌动动漫论坛 ( 鄂ICP备14000601号 )

JS of wanmeiff.com and vcpic.com Please keep this copyright information, respect of, thank you!JS of wanmeiff.com and vcpic.com Please keep this copyright information, respect of, thank you!

GMT+8, 2017-6-29 18:47 , Processed in 0.048577 second(s), 25 queries , Gzip On, Redis On.

Powered by Discuz! X3.3 Designed by 999test.cn

© 2001-2013 Comsenz Inc.

鄂公网安备 42062502000002号