查看: 135|回复: 2
收起左侧

[自抓精品] [BD][EAC自抓][170426]廢天使加百列 第二卷BD特典CD 天使と悪魔のキャラソン&サントラ(WAV+CUE)[724MB]

[复制链接]

 成长值: 1690

79

主题

357

帖子

2万

积分

用户组:萌伴终生

悠哉小白

节操
8490
资币
127482
萌点
110508
活跃
11804
贡献
13584
推广
1521
在线时间
1988 小时
注册时间
2015-10-25

最佳新人活跃会员推广达人宣传达人灌水之王突出贡献论坛元老我爱美少女我的妹妹妮可小埋若菜羽衣若狭悠里海老名白雪公主左苍慈

发表于 2017-6-11 12:27:08 | 显示全部楼层 |阅读模式


廢天使加百列 第二卷BD特典CD 天使と悪魔のキャラソン&サントラ

収録曲
01. オリジナルバイブル
02. 天界
03. いい雰囲気の日
04. 苦しむ人々
05. 駄天使
06. 神の奇跡
07. 天使の怒り
08. 未來の大悪魔様
09. こういう日ある
10. S級悪魔的行為
11. 未來の大悪魔様 (あくまで予定)
12. こういう日あるある
13. 大體こういう日
14. Gの恐怖
15. Gパニック
16. 黒い天使
17. あるねこういう日も
18. エンジェル珈琲
19. オトナのコーヒー
20. 緊張
21. たまには海來てみた
22. たまにいい日もある
23. いやー今日は良かった
24. 魔界通販
25. さあ何しよう
26. ケルベロスの數え歌
27. ガヴリールの數え歌 (第7話EDテーマ)
28. 逃避行
29. あるっちゃある日
30. こんな日もある
31. 天使としてどうかと
32. 天使としてどうなのかと
33. ぐうたら
34. マルティエル
35. 悪魔と犬の逃避行
36. ゼルエル
37. 天使と少女
38. 不安
39. 奇跡
40. ガヴリールの數え歌 (TV Ver.)

自購證明:


----------------------------------------------------------------------------------------------------------------
Exact Audio Copy V1.1 from 23. June 2015

EAC extraction logfile from 23. May 2017, 12:45

- / 天使と悪魔のキャラソン&サントラCD

Used drive  : PIONEER BD-RW  BDR-S11JX   Adapter: 1  ID: 0

Read mode               : Secure
Utilize accurate stream : Yes
Defeat audio cache      : Yes
Make use of C2 pointers : No

Read offset correction                      : 667
Overread into Lead-In and Lead-Out          : No
Fill up missing offset samples with silence : Yes
Delete leading and trailing silent blocks   : No
Null samples used in CRC calculations       : Yes
Used interface                              : Native Win32 interface for Win NT & 2000

Used output format : Internal WAV Routines
Sample format      : 44.100 Hz; 16 Bit; Stereo


TOC of the extracted CD

     Track |   Start  |  Length  | Start sector | End sector
    ---------------------------------------------------------
        1  |  0:00.00 |  4:11.16 |         0    |    18840   
        2  |  4:11.16 |  1:19.17 |     18841    |    24782   
        3  |  5:30.33 |  1:04.64 |     24783    |    29646   
        4  |  6:35.22 |  1:21.61 |     29647    |    35782   
        5  |  7:57.08 |  2:04.07 |     35783    |    45089   
        6  | 10:01.15 |  0:13.38 |     45090    |    46102   
        7  | 10:14.53 |  0:35.42 |     46103    |    48769   
        8  | 10:50.20 |  0:37.48 |     48770    |    51592   
        9  | 11:27.68 |  1:37.16 |     51593    |    58883   
       10  | 13:05.09 |  1:50.73 |     58884    |    67206   
       11  | 14:56.07 |  0:48.33 |     67207    |    70839   
       12  | 15:44.40 |  1:40.02 |     70840    |    78341   
       13  | 17:24.42 |  2:23.61 |     78342    |    89127   
       14  | 19:48.28 |  2:09.62 |     89128    |    98864   
       15  | 21:58.15 |  0:19.11 |     98865    |   100300   
       16  | 22:17.26 |  2:09.63 |    100301    |   110038   
       17  | 24:27.14 |  2:07.27 |    110039    |   119590   
       18  | 26:34.41 |  2:11.53 |    119591    |   129468   
       19  | 28:46.19 |  1:32.23 |    129469    |   136391   
       20  | 30:18.42 |  0:50.46 |    136392    |   140187   
       21  | 31:09.13 |  2:23.55 |    140188    |   150967   
       22  | 33:32.68 |  1:05.20 |    150968    |   155862   
       23  | 34:38.13 |  2:22.24 |    155863    |   166536   
       24  | 37:00.37 |  0:36.45 |    166537    |   169281   
       25  | 37:37.07 |  2:01.07 |    169282    |   178363   
       26  | 39:38.14 |  4:09.55 |    178364    |   197093   
       27  | 43:47.69 |  4:13.31 |    197094    |   216099   
       28  | 48:01.25 |  2:03.18 |    216100    |   225342   
       29  | 50:04.43 |  1:30.66 |    225343    |   232158   
       30  | 51:35.34 |  1:46.13 |    232159    |   240121   
       31  | 53:21.47 |  1:32.63 |    240122    |   247084   
       32  | 54:54.35 |  2:07.19 |    247085    |   256628   
       33  | 57:01.54 |  1:37.64 |    256629    |   263967   
       34  | 58:39.43 |  2:42.27 |    263968    |   276144   
       35  | 61:21.70 |  1:42.45 |    276145    |   283839   
       36  | 63:04.40 |  0:55.74 |    283840    |   288038   
       37  | 64:00.39 |  4:40.32 |    288039    |   309070   
       38  | 68:40.71 |  0:42.04 |    309071    |   312224   
       39  | 69:23.00 |  0:51.04 |    312225    |   316053   
       40  | 70:14.04 |  1:29.60 |    316054    |   322788   


Range status and errors

Selected range

     Filename D:\天使と悪魔のキャラソン&サントラCD.wav

     Peak level 100.0 %
     Extraction speed 8.4 X
     Range quality 100.0 %
     Copy CRC E2DA2FFB
     Copy OK

No errors occurred

End of status report

==== Log checksum DE4A38760F12B5A7E2D92F501E011F1772BE9E305130623A9DDF68B618714D2B ====
-----------------------------------------------------------------------------------------------------------------------------------------

【本資源使用RAR5打包,煩請使用RAR5.0版以上解包】
百度網盤(考慮到百度雲的加密系統過于薄弱,鏈接不放在外面。不便之處,還請諒解。)
购买主题 本主题需向作者支付 5 资币 才能浏览

6125

主题

1万

帖子

7万

积分

资源组

AI机器人客服——新人向导、问题咨询、管理投诉。

节操
-8875
萌点
1896
活跃
53490
贡献
12988
推广
8486
资币
3978
在线时间
6405 小时
注册时间
2002-2-2

推广达人宣传达人灌水之王论坛元老最佳新人活跃会员热心会员突出贡献优秀版主荣誉管理我爱美少女我的妹妹

发表于 2017-6-11 12:49:45 | 显示全部楼层
居然入手实体了。。。什么时候开始的我都不知道

如果链接失效请直接PM楼主或者到指定帖子内统一反馈,不要在楼下回复。使用论坛的过程中有什么不懂的地方也可以问我,或者在指定的版块发帖求助。

 成长值: 1690

79

主题

357

帖子

2万

积分

用户组:萌伴终生

悠哉小白

节操
8490
资币
127482
萌点
110508
活跃
11804
贡献
13584
推广
1521
在线时间
1988 小时
注册时间
2015-10-25

最佳新人活跃会员推广达人宣传达人灌水之王突出贡献论坛元老我爱美少女我的妹妹妮可小埋若菜羽衣若狭悠里海老名白雪公主左苍慈

 楼主| 发表于 2017-6-11 13:31:06 | 显示全部楼层
书生 发表于 2017-6-11 12:49
居然入手实体了。。。什么时候开始的我都不知道

因為在下只入手BD而已。
您需要登录后才可以回帖 登录 | 欢迎注册

本版积分规则

手机版|萌动动漫论坛 ( 鄂ICP备14000601号 )

JS of wanmeiff.com and vcpic.com Please keep this copyright information, respect of, thank you!JS of wanmeiff.com and vcpic.com Please keep this copyright information, respect of, thank you!

GMT+8, 2017-6-29 18:46 , Processed in 0.039639 second(s), 21 queries , Gzip On, Redis On.

Powered by Discuz! X3.3 Designed by 999test.cn

© 2001-2013 Comsenz Inc.

鄂公网安备 42062502000002号