查看: 83|回复: 3
收起左侧

[游戏之声] [百度][自抓] NF-0001 Rage of the Dragons Original Arrange High Quality Version [WAV+CUE]

[复制链接]

9

主题

13

帖子

111

积分

用户组:萌漫随行

节操
110
资币
30
萌点
823
活跃
87
贡献
12
推广
25
在线时间
8 小时
注册时间
2017-6-12
发表于 2017-6-12 15:42:18 | 显示全部楼层 |阅读模式







专辑名称:
Rage of the Dragons Original Arrange High Quality Version

专辑介绍:
Rage of the Dragons Original Arrange High Quality Version

Catalog Number        NF-0001
Release Date        Sep 13, 2002
Publish Format        Commercial
Release Price        1800 JPY
Media Format        CD
Classification        Original Soundtrack
Published by        Noise Factory
Composed by        Toshikazu Tanaka
Arranged by       

曲目列表:
Tracklist
Disc 1

01        Rage Of The Doragons        0:39
02        Come on!        0:19
03        Confrontation        0:05
04        All Over The Place        0:15
05        Cheer Up!        3:22
06        Exorcism        3:13
07        Funky Togetherness        3:32
08        Dragons Blues        2:51
09        You Win!        0:07
10        Beat Out        3:03
11        Violent Death        3:02
12        Splendid String From China        2:35
13        Heavy Fellow        0:27
14        Exclamation        3:02
15        An Underdog        0:37
16        Yohan Demo        0:30
17        Statelessness        2:58
18        In The Result        0:34
19        Become Lively        0:29
20        Sad To Say        0:31
21        Since Then        0:32
22        Several Minds        0:35
23        Glorious Heart        2:28
24        Challenger        0:04
25        Don't Stop!        0:09
26        Game Over        0:11
27        Pepe Voice        0:28
28        Pupa Voice        0:28
29        Mr. Jones Voice        0:29
30        Jae-Kang Voice        0:32
31        Elias Voice        0:30
32        Alice Voice        0:26
33        Jimmy Voice        0:31
34        Sonia Voice        0:29
35        Oni Voice        0:34
36        Cassandra Voice        0:25
37        Billy Voice        0:32
38        Lynn Voice        0:33
39        Radel Voice        0:27
40        Anny Voice        0:28
41        Abubo Voice        0:32
42        Yohan Voice        0:28
Disc length 44:02

LOG:
Exact Audio Copy V0.99 prebeta 5 from 4. May 2009

EAC 抓取日志文件从20. 十二月 2015, 14:43

未知艺术家 / 未知标题

使用驱动器  :ASUS    DRW-2014L1T   Adapter: 5  ID: 0

读取模式     : 保护
使用精确流   : 是
废除音频缓冲 : 是
使用 C2 指针 : 否

读取偏移校正                   : 6
读取 Lead-In 和 Lead-Out       : 否
用静音填充抓取中丢失偏移的采样 : 是
去除首尾静音块                 : 否
在 CRC 计算中使用了空样本      : 否
已用接口                       : Win NT 及 2000 本地 Win32 接口

所用输出格式 : 内部 WAV 函数
样本格式     : 44.100 Hz;16 Bit;立体声


被抓轨 CD 的 TOC

     音轨 |   开始   |   长度   | 起始扇区 | 结尾扇区
    --------------------------------------------------
       1  |  0:00.00 |  0:39.05 |       0  |    2929  
       2  |  0:39.05 |  0:19.70 |    2930  |    4424  
       3  |  0:59.00 |  0:05.65 |    4425  |    4864  
       4  |  1:04.65 |  0:15.40 |    4865  |    6029  
       5  |  1:20.30 |  3:22.52 |    6030  |   21231  
       6  |  4:43.07 |  3:13.68 |   21232  |   35774  
       7  |  7:57.00 |  3:32.27 |   35775  |   51701  
       8  | 11:29.27 |  2:51.55 |   51702  |   64581  
       9  | 14:21.07 |  0:07.38 |   64582  |   65144  
      10  | 14:28.45 |  3:03.37 |   65145  |   78906  
      11  | 17:32.07 |  3:02.35 |   78907  |   92591  
      12  | 20:34.42 |  2:35.33 |   92592  |  104249  
      13  | 23:10.00 |  0:27.47 |  104250  |  106321  
      14  | 23:37.47 |  3:02.73 |  106322  |  120044  
      15  | 26:40.45 |  0:37.35 |  120045  |  122854  
      16  | 27:18.05 |  0:30.52 |  122855  |  125156  
      17  | 27:48.57 |  2:58.53 |  125157  |  138559  
      18  | 30:47.35 |  0:34.37 |  138560  |  141146  
      19  | 31:21.72 |  0:29.10 |  141147  |  143331  
      20  | 31:51.07 |  0:31.38 |  143332  |  145694  
      21  | 32:22.45 |  0:32.40 |  145695  |  148134  
      22  | 32:55.10 |  0:35.15 |  148135  |  150774  
      23  | 33:30.25 |  2:28.72 |  150775  |  161946  
      24  | 35:59.22 |  0:04.00 |  161947  |  162246  
      25  | 36:03.22 |  0:09.08 |  162247  |  162929  
      26  | 36:12.30 |  0:11.02 |  162930  |  163756  
      27  | 36:23.32 |  0:28.30 |  163757  |  165886  
      28  | 36:51.62 |  0:28.70 |  165887  |  168056  
      29  | 37:20.57 |  0:29.18 |  168057  |  170249  
      30  | 37:50.00 |  0:32.15 |  170250  |  172664  
      31  | 38:22.15 |  0:30.15 |  172665  |  174929  
      32  | 38:52.30 |  0:26.40 |  174930  |  176919  
      33  | 39:18.70 |  0:31.27 |  176920  |  179271  
      34  | 39:50.22 |  0:29.15 |  179272  |  181461  
      35  | 40:19.37 |  0:34.53 |  181462  |  184064  
      36  | 40:54.15 |  0:25.55 |  184065  |  185994  
      37  | 41:19.70 |  0:32.52 |  185995  |  188446  
      38  | 41:52.47 |  0:33.33 |  188447  |  190954  
      39  | 42:26.05 |  0:27.37 |  190955  |  193016  
      40  | 42:53.42 |  0:28.45 |  193017  |  195161  
      41  | 43:22.12 |  0:32.55 |  195162  |  197616  
      42  | 43:54.67 |  0:28.38 |  197617  |  199754  





购买主题 本主题需向作者支付 10 资币 才能浏览

6125

主题

1万

帖子

7万

积分

资源组

AI机器人客服——新人向导、问题咨询、管理投诉。

节操
-8875
萌点
1896
活跃
53490
贡献
12988
推广
8486
资币
3978
在线时间
6405 小时
注册时间
2002-2-2

推广达人宣传达人灌水之王论坛元老最佳新人活跃会员热心会员突出贡献优秀版主荣誉管理我爱美少女我的妹妹

发表于 2017-6-12 23:59:11 | 显示全部楼层
楼主这真的是你的自抓吗,你确定log没问题?
因为这个不是常见的碟子,能不能写上我的ID然后和CD一起拍照然后直接回复我,我方便确认然后给你加一个精。

如果链接失效请直接PM楼主或者到指定帖子内统一反馈,不要在楼下回复。使用论坛的过程中有什么不懂的地方也可以问我,或者在指定的版块发帖求助。

9

主题

13

帖子

111

积分

用户组:萌漫随行

节操
110
资币
30
萌点
823
活跃
87
贡献
12
推广
25
在线时间
8 小时
注册时间
2017-6-12
 楼主| 发表于 2017-6-13 15:32:48 | 显示全部楼层
自抓CD照

9

主题

13

帖子

111

积分

用户组:萌漫随行

节操
110
资币
30
萌点
823
活跃
87
贡献
12
推广
25
在线时间
8 小时
注册时间
2017-6-12
 楼主| 发表于 2017-6-13 15:37:32 | 显示全部楼层
书生 发表于 2017-6-12 23:59
楼主这真的是你的自抓吗,你确定log没问题?
因为这个不是常见的碟子,能不能写上我的ID然后和CD一起拍照然 ...

自抓CD照 已补发上了
您需要登录后才可以回帖 登录 | 欢迎注册

本版积分规则

手机版|萌动动漫论坛 ( 鄂ICP备14000601号 )

JS of wanmeiff.com and vcpic.com Please keep this copyright information, respect of, thank you!JS of wanmeiff.com and vcpic.com Please keep this copyright information, respect of, thank you!

GMT+8, 2017-6-29 18:44 , Processed in 0.062873 second(s), 23 queries , Gzip On, Redis On.

Powered by Discuz! X3.3 Designed by 999test.cn

© 2001-2013 Comsenz Inc.

鄂公网安备 42062502000002号