查看: 164|回复: 1
收起左侧

[自抓精品] [百度][EAC自抓][170607]Ray - Happy days[初回限定盤](WAV+CUE+LOG+BK+BDISO)[21.29GB]

[复制链接]

 成长值: 1690

79

主题

357

帖子

2万

积分

用户组:萌伴终生

悠哉小白

节操
8490
资币
127482
萌点
110508
活跃
11804
贡献
13584
推广
1521
在线时间
1988 小时
注册时间
2015-10-25

最佳新人活跃会员推广达人宣传达人灌水之王突出贡献论坛元老我爱美少女我的妹妹妮可小埋若菜羽衣若狭悠里海老名白雪公主左苍慈

发表于 2017-6-16 08:21:03 | 显示全部楼层 |阅读模式


内容紹介
TVアニメ「あの夏で待ってる」「凪のあすから」などの人気作品のテーマソングを収録したRayのベストアルバム!

Rayの楽曲を多数手がけたI've高瀬一矢&中沢伴行それぞれの作家による新曲2曲を収録。
初回限定盤には、ゲーム作品のタイアップ楽曲やライブで人気のアルバム曲を収録した特典CDとRayのすべてのミュージックビデオを収録したMV集、
さらに昨年11月に行われたANIMAX MUSIX 2016 YOKOHAMAの「初めてガールズ! 」「?km/h」のライブ映像を収録した特典Blu-ray付き。

「sign」TVアニメ「あの夏で待ってる」OPテーマ
「楽園PROJECT」TVアニメ「To LOVEる -とらぶる- ダークネス」 OPテーマ
「Recall」 TVアニメ「AMNESIA」EDテーマ
「lull 〜そして僕らは〜」TVアニメ「凪のあすから」OPテーマ
「ebb and flow」TVアニメ「凪のあすから」新OPテーマ
「secret arms」TVアニメ「To LOVEる -とらぶる- ダークネス 2nd」OPテーマ
「初めてガールズ! 」TVアニメ「わかば*ガール」OPテーマ
「a-gain」TVアニメ「蒼の彼方のフォーリズム」EDテーマ
「㎞/h」TVアニメ「ろんぐらいだぁす! 」OPテーマ
「告白」TVアニメ「あの夏で待ってる」イメージソング
「凪-nagi-」TVアニメ「凪のあすから」イメージソング)
「季節のシャッター」OVA「あの夏で待ってる 特別編」OPテーマ
「君といた空」TVアニメ「蒼の彼方のフォーリズム」最終話EDテーマ
「こゆび姫」*新曲
「マリンスノー」*新曲
全15曲収録

【初回限定盤特典】
■特典CD
「Over Ride」
「ひかり」ゲームソフト「十鬼の絆 花結綴り」EDテーマ(一)
「babymacaron」
「As for me」
「契-この広い広い、時空を越えて」ゲームソフト「十鬼の絆 関ヶ原奇譚」 EDテーマ(一)
「始まりの朝」ゲームソフト「十鬼の絆 花結綴り」EDテーマ(二))
「やわじゃないDID!!-Catch me To LOVEる-」ゲーム「To LOVEる -とらぶる- ダークネス バトルエクスタシー」主題歌
「a-ha・・・! 」
「I'm MONSTERちゃん」
「fragment love」
「Lovely storm」
「星」
「Confession」
「My Future」
「約束train」 「キミと」TVアニメ「ろんぐらいだぁす! 」第9話 挿入歌
全16曲収録

■特典Blu-ray
MV集*全11曲
「sign」TVアニメ「あの夏で待ってる」OPテーマ
「楽園PROJECT」TVアニメ「To LOVEる -とらぶる- ダークネス」 OPテーマ
「Recall」TVアニメ「AMNESIA」EDテーマ
「As for me」
「lull 〜そして僕らは〜」TVアニメ「凪のあすから」OPテーマ
「ebb and flow」TVアニメ「凪のあすから」新OPテーマ
「やわじゃないDID!! -Catch me To LOVEる-」ゲームソフト「To LOVEる -とらぶる- ダークネス バトルエクスタシー」主題歌
「secret arms」TVアニメ「To LOVEる -とらぶる- ダークネス 2nd」OPテーマ
「初めてガールズ! 」TVアニメ「わかば*ガール」OPテーマ)
「a-gain」TVアニメ「蒼の彼方のフォーリズム」EDテーマ
「㎞/h」 TVアニメ「ろんぐらいだぁす! 」OPテーマ

ライブ映像:全2曲
ANIMAX MUSIX 2016 YOKOHAMA([email protected])より
「㎞/h」
「初めてガールズ! 」

【特典】
2017年7月22日・23日に行われるRayファイナルライブ「RAYVE FINAL」のチケット先行応募券

メディア掲載レビューほか
TVアニメ『あの夏で待ってる』『凪のあすから』などの人気作品のテーマソングを収録したRayのベスト・アルバム!Rayの楽曲を多数手がけたI’ve高瀬一矢&中沢伴行それぞれの作家による楽曲も収録。 (C)RS


CD自購證明



CD LOG:
-------------------------------------------------------------------------------------------------------------------------------------------
Exact Audio Copy V1.1 from 23. June 2015

EAC extraction logfile from 9. June 2017, 22:43

Ray / Happy days

Used drive  : PIONEER BD-RW  BDR-S11JX   Adapter: 1  ID: 0

Read mode               : Secure
Utilize accurate stream : Yes
Defeat audio cache      : Yes
Make use of C2 pointers : No

Read offset correction                      : 667
Overread into Lead-In and Lead-Out          : No
Fill up missing offset samples with silence : Yes
Delete leading and trailing silent blocks   : No
Null samples used in CRC calculations       : Yes
Used interface                              : Native Win32 interface for Win NT & 2000

Used output format : Internal WAV Routines
Sample format      : 44.100 Hz; 16 Bit; Stereo


TOC of the extracted CD

     Track |   Start  |  Length  | Start sector | End sector
    ---------------------------------------------------------
        1  |  0:00.00 |  4:44.17 |         0    |    21316   
        2  |  4:44.17 |  4:54.01 |     21317    |    43367   
        3  |  9:38.18 |  4:26.25 |     43368    |    63342   
        4  | 14:04.43 |  4:55.57 |     63343    |    85524   
        5  | 19:00.25 |  4:15.68 |     85525    |   104717   
        6  | 23:16.18 |  3:43.15 |    104718    |   121457   
        7  | 26:59.33 |  3:37.64 |    121458    |   137796   
        8  | 30:37.22 |  4:42.51 |    137797    |   158997   
        9  | 35:19.73 |  3:59.09 |    158998    |   176931   
       10  | 39:19.07 |  5:31.49 |    176932    |   201805   
       11  | 44:50.56 |  4:40.26 |    201806    |   222831   
       12  | 49:31.07 |  5:05.03 |    222832    |   245709   
       13  | 54:36.10 |  4:21.10 |    245710    |   265294   
       14  | 58:57.20 |  4:35.43 |    265295    |   285962   
       15  | 63:32.63 |  4:48.47 |    285963    |   307609   


Range status and errors

Selected range

     Filename D:\Ray - Happy days.wav

     Peak level 99.9 %
     Extraction speed 8.5 X
     Range quality 100.0 %
     Copy CRC AF4456B1
     Copy OK

No errors occurred

End of status report

==== Log checksum 1927AE0E3192BA684C5679DB3847426E8F17E2A45885A27873CB6D4C78A0F604 ====
-------------------------------------------------------------------------------------------------------------------------------------------


Bonus CD LOG
-------------------------------------------------------------------------------------------------------------------------------------------
Exact Audio Copy V1.1 from 23. June 2015

EAC extraction logfile from 9. June 2017, 23:25

Ray / Happy days(Bonus CD)

Used drive  : PIONEER BD-RW  BDR-S11JX   Adapter: 1  ID: 0

Read mode               : Secure
Utilize accurate stream : Yes
Defeat audio cache      : Yes
Make use of C2 pointers : No

Read offset correction                      : 667
Overread into Lead-In and Lead-Out          : No
Fill up missing offset samples with silence : Yes
Delete leading and trailing silent blocks   : No
Null samples used in CRC calculations       : Yes
Used interface                              : Native Win32 interface for Win NT & 2000

Used output format : Internal WAV Routines
Sample format      : 44.100 Hz; 16 Bit; Stereo


TOC of the extracted CD

     Track |   Start  |  Length  | Start sector | End sector
    ---------------------------------------------------------
        1  |  0:00.00 |  4:37.47 |         0    |    20821   
        2  |  4:37.47 |  4:44.73 |     20822    |    42194   
        3  |  9:22.45 |  4:59.73 |     42195    |    64692   
        4  | 14:22.43 |  4:46.38 |     64693    |    86180   
        5  | 19:09.06 |  4:11.66 |     86181    |   105071   
        6  | 23:20.72 |  4:34.72 |    105072    |   125693   
        7  | 27:55.69 |  4:32.55 |    125694    |   146148   
        8  | 32:28.49 |  4:14.18 |    146149    |   165216   
        9  | 36:42.67 |  3:51.51 |    165217    |   182592   
       10  | 40:34.43 |  4:37.23 |    182593    |   203390   
       11  | 45:11.66 |  4:36.28 |    203391    |   224118   
       12  | 49:48.19 |  4:40.28 |    224119    |   245146   
       13  | 54:28.47 |  4:06.50 |    245147    |   263646   
       14  | 58:35.22 |  4:41.52 |    263647    |   284773   
       15  | 63:16.74 |  4:06.47 |    284774    |   303270   
       16  | 67:23.46 |  4:22.58 |    303271    |   322978   


Range status and errors

Selected range

     Filename D:\Ray - Happy days(Bonus CD).wav

     Peak level 99.9 %
     Extraction speed 8.5 X
     Range quality 99.9 %
     Copy CRC 3F8FACF8
     Copy OK

No errors occurred

End of status report

==== Log checksum 55CC448D3A7C3CB918DD60D89D07349C6250093FDCCFC41241326810782BBF91 ====
-------------------------------------------------------------------------------------------------------------------------------------------

【本資源使用RAR5打包,煩請使用RAR5.0版以上解包】
【自購資源,未經許可,禁止任何形式轉載】
【已添加5%修複紀錄,若解壓失敗,請修複損壞的分割檔再解壓。】
【若修複失敗請重新下載該文件。】

百度網盤(考慮到百度雲的加密系統過于薄弱,鏈接不放在外面。不便之處,還請諒解。)
购买主题 已有 2 人购买  本主题需向作者支付 15 资币 才能浏览

6125

主题

1万

帖子

7万

积分

资源组

AI机器人客服——新人向导、问题咨询、管理投诉。

节操
-8875
萌点
1896
活跃
53490
贡献
12988
推广
8486
资币
3978
在线时间
6405 小时
注册时间
2002-2-2

推广达人宣传达人灌水之王论坛元老最佳新人活跃会员热心会员突出贡献优秀版主荣誉管理我爱美少女我的妹妹

发表于 2017-6-16 16:41:36 | 显示全部楼层
Ray的脸好肥。。。
从侧面看还是挺可爱的

话说这体积好大

如果链接失效请直接PM楼主或者到指定帖子内统一反馈,不要在楼下回复。使用论坛的过程中有什么不懂的地方也可以问我,或者在指定的版块发帖求助。
您需要登录后才可以回帖 登录 | 欢迎注册

本版积分规则

手机版|萌动动漫论坛 ( 鄂ICP备14000601号 )

JS of wanmeiff.com and vcpic.com Please keep this copyright information, respect of, thank you!JS of wanmeiff.com and vcpic.com Please keep this copyright information, respect of, thank you!

GMT+8, 2017-6-29 18:45 , Processed in 0.043698 second(s), 19 queries , Gzip On, Redis On.

Powered by Discuz! X3.3 Designed by 999test.cn

© 2001-2013 Comsenz Inc.

鄂公网安备 42062502000002号