查看: 338|回复: 4
收起左侧

[自抓精品] [百度][EAC自抓][170628]情色漫畫老師 第一卷BD特典CD 角色歌(紗霧)&OST Vol.1(WAV+CUE+LOG+BK)[868.69MB] 

[复制链接]

 成长值: 2240

82

主题

363

帖子

2万

积分

用户组:萌伴终生

悠哉小白

节操
8750
资币
127906
萌点
118707
活跃
12131
贡献
13646
推广
1596
在线时间
2068 小时
注册时间
2015-10-25

最佳新人活跃会员推广达人宣传达人灌水之王突出贡献论坛元老我爱美少女我的妹妹妮可小埋若菜羽衣若狭悠里海老名白雪公主左苍慈

发表于 2017-7-9 12:27:11 | 显示全部楼层 |阅读模式


情色漫畫老師 第一卷BD特典CD キャラクターソング(紗霧)&Original Soundtrack Vol.1

収録曲


CD自購證明:



LOG:
--------------------------------------------------------------------------------------------------------------------------------
Exact Audio Copy V1.3 from 2. September 2016

EAC extraction logfile from 3. July 2017, 22:41

菊谷知樹 / エロマンガ先生 BD Vol.1 特典CD キャラクターソング(紗霧)&Original Soundtrack Vol.1

Used drive  : PIONEER BD-RW  BDR-S11JX   Adapter: 1  ID: 0

Read mode               : Secure
Utilize accurate stream : Yes
Defeat audio cache      : Yes
Make use of C2 pointers : No

Read offset correction                      : 667
Overread into Lead-In and Lead-Out          : No
Fill up missing offset samples with silence : Yes
Delete leading and trailing silent blocks   : No
Null samples used in CRC calculations       : Yes
Used interface                              : Native Win32 interface for Win NT & 2000

Used output format : Internal WAV Routines
Sample format      : 44.100 Hz; 16 Bit; Stereo


TOC of the extracted CD

     Track |   Start  |  Length  | Start sector | End sector
    ---------------------------------------------------------
        1  |  0:00.00 |  3:46.35 |         0    |    16984   
        2  |  3:46.35 |  3:48.72 |     16985    |    34156   
        3  |  7:35.32 |  2:04.27 |     34157    |    43483   
        4  |  9:39.59 |  2:42.22 |     43484    |    55655   
        5  | 12:22.06 |  1:53.10 |     55656    |    64140   
        6  | 14:15.16 |  1:36.65 |     64141    |    71405   
        7  | 15:52.06 |  1:42.58 |     71406    |    79113   
        8  | 17:34.64 |  1:33.66 |     79114    |    86154   
        9  | 19:08.55 |  1:36.58 |     86155    |    93412   
       10  | 20:45.38 |  1:37.24 |     93413    |   100711   
       11  | 22:22.62 |  1:41.20 |    100712    |   108306   
       12  | 24:04.07 |  1:35.18 |    108307    |   115449   
       13  | 25:39.25 |  1:50.11 |    115450    |   123710   
       14  | 27:29.36 |  1:37.00 |    123711    |   130985   
       15  | 29:06.36 |  1:41.65 |    130986    |   138625   
       16  | 30:48.26 |  1:57.62 |    138626    |   147462   
       17  | 32:46.13 |  1:38.27 |    147463    |   154839   
       18  | 34:24.40 |  2:29.72 |    154840    |   166086   
       19  | 36:54.37 |  1:47.11 |    166087    |   174122   
       20  | 38:41.48 |  1:48.48 |    174123    |   182270   
       21  | 40:30.21 |  1:52.35 |    182271    |   190705   
       22  | 42:22.56 |  1:40.71 |    190706    |   198276   
       23  | 44:03.52 |  1:35.59 |    198277    |   205460   
       24  | 45:39.36 |  1:38.30 |    205461    |   212840   
       25  | 47:17.66 |  1:44.02 |    212841    |   220642   
       26  | 49:01.68 |  1:40.52 |    220643    |   228194   
       27  | 50:42.45 |  1:34.69 |    228195    |   235313   
       28  | 52:17.39 |  1:29.00 |    235314    |   241988   
       29  | 53:46.39 |  1:39.53 |    241989    |   249466   
       30  | 55:26.17 |  1:34.48 |    249467    |   256564   
       31  | 57:00.65 |  1:35.66 |    256565    |   263755   
       32  | 58:36.56 |  1:39.41 |    263756    |   271221   
       33  | 60:16.22 |  1:36.61 |    271222    |   278482   
       34  | 61:53.08 |  1:49.36 |    278483    |   286693   
       35  | 63:42.44 |  1:52.54 |    286694    |   295147   
       36  | 65:35.23 |  1:40.50 |    295148    |   302697   


Range status and errors

Selected range

     Filename D:\菊谷知樹 - エロマンガ先生 BD Vol.1 特典CD キャラクターソング(紗霧)&Original Soundtrack Vol.1.wav

     Peak level 99.9 %
     Extraction speed 8.1 X
     Range quality 100.0 %
     Copy CRC 7C4C5C71
     Copy OK

No errors occurred

End of status report

---- CUETools DB Plugin V2.1.6

[CTDB TOCID: p9f688aPe8AgiDful8ETGML34HI-] found
Submit result: p9f688aPe8AgiDful8ETGML34HI- has been confirmed
Track | CTDB Status
  1   | (9/9) Accurately ripped
  2   | (9/9) Accurately ripped
  3   | (9/9) Accurately ripped
  4   | (9/9) Accurately ripped
  5   | (9/9) Accurately ripped
  6   | (9/9) Accurately ripped
  7   | (9/9) Accurately ripped
  8   | (9/9) Accurately ripped
  9   | (9/9) Accurately ripped
10   | (9/9) Accurately ripped
11   | (9/9) Accurately ripped
12   | (9/9) Accurately ripped
13   | (9/9) Accurately ripped
14   | (9/9) Accurately ripped
15   | (9/9) Accurately ripped
16   | (9/9) Accurately ripped
17   | (9/9) Accurately ripped
18   | (9/9) Accurately ripped
19   | (9/9) Accurately ripped
20   | (9/9) Accurately ripped
21   | (9/9) Accurately ripped
22   | (9/9) Accurately ripped
23   | (9/9) Accurately ripped
24   | (9/9) Accurately ripped
25   | (9/9) Accurately ripped
26   | (9/9) Accurately ripped
27   | (9/9) Accurately ripped
28   | (9/9) Accurately ripped
29   | (9/9) Accurately ripped
30   | (9/9) Accurately ripped
31   | (9/9) Accurately ripped
32   | (9/9) Accurately ripped
33   | (9/9) Accurately ripped
34   | (9/9) Accurately ripped
35   | (9/9) Accurately ripped
36   | (9/9) Accurately ripped


==== Log checksum 5A4E4213DC69DA47A5DCC9DDAEFE9DFF162E026E78DABF1B25593CEE6203AA32 ====
--------------------------------------------------------------------------------------------------------------------------------


【本資源使用RAR5打包,煩請使用RAR5.0版以上解包】
【自購資源,未經許可,禁止任何形式轉載】
【已添加5%修複紀錄,若解壓失敗,請修複損壞的分割檔再解壓。】
【若修複失敗請重新下載該文件。】

百度網盤(考慮到百度雲的加密系統過于薄弱,鏈接不放在外面。不便之處,還請諒解。)
购买主题 已有 10 人购买  本主题需向作者支付 5 资币 才能浏览

6249

主题

1万

帖子

7万

积分

资源组

AI机器人客服——新人向导、问题咨询、管理投诉。

节操
-8844
萌点
6817
活跃
54294
贡献
13184
推广
8619
资币
6994
在线时间
6635 小时
注册时间
2002-2-2

推广达人宣传达人灌水之王论坛元老最佳新人活跃会员热心会员突出贡献优秀版主荣誉管理我爱美少女我的妹妹

发表于 2017-7-9 12:44:08 | 显示全部楼层
我从CD的倒影好像看见P壕长什么样了

紗霧最喜欢了!!

如果链接失效请直接PM楼主或者到指定帖子内统一反馈,不要在楼下回复。使用论坛的过程中有什么不懂的地方也可以问我,或者在指定的版块发帖求助。

 成长值: 2240

82

主题

363

帖子

2万

积分

用户组:萌伴终生

悠哉小白

节操
8750
资币
127906
萌点
118707
活跃
12131
贡献
13646
推广
1596
在线时间
2068 小时
注册时间
2015-10-25

最佳新人活跃会员推广达人宣传达人灌水之王突出贡献论坛元老我爱美少女我的妹妹妮可小埋若菜羽衣若狭悠里海老名白雪公主左苍慈

 楼主| 发表于 2017-7-9 19:39:00 | 显示全部楼层
书生 发表于 2017-7-9 12:44
我从CD的倒影好像看见P壕长什么样了

紗霧最喜欢了!!

是嗎?哪裡哪裡!還是你是看到X!

6249

主题

1万

帖子

7万

积分

资源组

AI机器人客服——新人向导、问题咨询、管理投诉。

节操
-8844
萌点
6817
活跃
54294
贡献
13184
推广
8619
资币
6994
在线时间
6635 小时
注册时间
2002-2-2

推广达人宣传达人灌水之王论坛元老最佳新人活跃会员热心会员突出贡献优秀版主荣誉管理我爱美少女我的妹妹

发表于 2017-7-9 22:04:39 | 显示全部楼层
paihctom 发表于 2017-7-9 19:39
是嗎?哪裡哪裡!還是你是看到X!

那么紧张干什么,又没看到眼睛

如果链接失效请直接PM楼主或者到指定帖子内统一反馈,不要在楼下回复。使用论坛的过程中有什么不懂的地方也可以问我,或者在指定的版块发帖求助。

7

主题

117

帖子

449

积分

用户组:萌情滋生

老司机别开车,自己人!

节操
17
资币
1008
萌点
3279
活跃
445
贡献
11
推广
7
在线时间
84 小时
注册时间
2017-7-3

我的妹妹最佳新人我爱美少女妮可活跃会员小埋若菜羽衣

发表于 2017-7-10 00:37:49 | 显示全部楼层
歌不错,图也不错,拿走谢谢
您需要登录后才可以回帖 登录 | 欢迎注册

本版积分规则

手机版|萌动动漫论坛 ( 鄂ICP备14000601号 )

JS of wanmeiff.com and vcpic.com Please keep this copyright information, respect of, thank you!JS of wanmeiff.com and vcpic.com Please keep this copyright information, respect of, thank you!

GMT+8, 2017-8-19 22:53 , Processed in 0.053489 second(s), 25 queries , Gzip On, Redis On.

Powered by Discuz! X3.3 Designed by 999test.cn

© 2001-2013 Comsenz Inc.

鄂公网安备 42062502000002号