查看: 130|回复: 0
收起左侧

[自抓精品] [百度][EAC自抓][170628]末日時在做甚麼?有沒有空?可以來拯救嗎? 第一卷BD特典CD 廣播劇1(WAV+CUE+LOG+BK)[308.51MB] 

[复制链接]

 成长值: 1960

82

主题

361

帖子

2万

积分

用户组:萌伴终生

悠哉小白

节操
8750
资币
127779
萌点
115446
活跃
12086
贡献
13639
推广
1596
在线时间
2036 小时
注册时间
2015-10-25

最佳新人活跃会员推广达人宣传达人灌水之王突出贡献论坛元老我爱美少女我的妹妹妮可小埋若菜羽衣若狭悠里海老名白雪公主左苍慈

发表于 2017-7-9 12:30:09 | 显示全部楼层 |阅读模式


末日時在做甚麼?有沒有空?可以來拯救嗎? 第一卷BD特典CD スペシャルオーディオドラマ 1 しょーとしょーと詰め合わせ

収録曲
1.タイトルコール
2.6年8組 ヴィレム先生 出欠編
3.ナイグラートのトロトロクッキング 1
4.GOGO ティアット刑事 事件編
5.6年8組 ヴィレム先生 自習編
6.レディース総長物語
7.ナイグラートのトロトロクッキング 2
8.シックスティーエイトラジオ
9.GOGO ティアット刑事 推理編
10.6年8組 ヴィレム先生 女子更衣室編
11.続.レディース総長物語
12.GOGO ティアット刑事 解決編
13.ナイグラートのトロトロクッキング 3
14.6年8組 ヴィレム先生 放課後編


CD自購證明




LOG
-------------------------------------------------------------------------------------------------------------------------
Exact Audio Copy V1.3 from 2. September 2016

EAC extraction logfile from 8. July 2017, 16:50

Various Artists / スペシャルオーディオドラマ 1 しょーとしょーと詰め合わせ

Used drive  : PIONEER BD-RW  BDR-S11JX   Adapter: 1  ID: 0

Read mode               : Secure
Utilize accurate stream : Yes
Defeat audio cache      : Yes
Make use of C2 pointers : No

Read offset correction                      : 667
Overread into Lead-In and Lead-Out          : No
Fill up missing offset samples with silence : Yes
Delete leading and trailing silent blocks   : No
Null samples used in CRC calculations       : Yes
Used interface                              : Native Win32 interface for Win NT & 2000

Used output format : Internal WAV Routines
Sample format      : 44.100 Hz; 16 Bit; Stereo


TOC of the extracted CD

     Track |   Start  |  Length  | Start sector | End sector
    ---------------------------------------------------------
        1  |  0:00.00 |  0:16.60 |         0    |     1259   
        2  |  0:16.60 |  1:05.60 |      1260    |     6194   
        3  |  1:22.45 |  1:15.08 |      6195    |    11827   
        4  |  2:37.53 |  1:36.45 |     11828    |    19072   
        5  |  4:14.23 |  1:20.57 |     19073    |    25129   
        6  |  5:35.05 |  1:26.43 |     25130    |    31622   
        7  |  7:01.48 |  0:53.10 |     31623    |    35607   
        8  |  7:54.58 |  0:48.15 |     35608    |    39222   
        9  |  8:42.73 |  1:03.32 |     39223    |    43979   
       10  |  9:46.30 |  1:44.05 |     43980    |    51784   
       11  | 11:30.35 |  1:08.48 |     51785    |    56932   
       12  | 12:39.08 |  1:05.40 |     56933    |    61847   
       13  | 13:44.48 |  0:51.17 |     61848    |    65689   
       14  | 14:35.65 |  1:24.68 |     65690    |    72057   


Range status and errors

Selected range

     Filename D:\Various Artists - スペシャルオーディオドラマ 1 しょーとしょーと詰め合わせ.wav

     Peak level 98.8 %
     Extraction speed 5.6 X
     Range quality 100.0 %
     Copy CRC CE3C1C90
     Copy OK

No errors occurred

End of status report

---- CUETools DB Plugin V2.1.6

[CTDB TOCID: .di_RhOSMgV2I22x95CbvdfYD78-] found
Submit result: .di_RhOSMgV2I22x95CbvdfYD78- has been confirmed
Track | CTDB Status
  1   | (3/3) Accurately ripped
  2   | (3/3) Accurately ripped
  3   | (3/3) Accurately ripped
  4   | (3/3) Accurately ripped
  5   | (3/3) Accurately ripped
  6   | (3/3) Accurately ripped
  7   | (3/3) Accurately ripped
  8   | (3/3) Accurately ripped
  9   | (3/3) Accurately ripped
10   | (3/3) Accurately ripped
11   | (3/3) Accurately ripped
12   | (3/3) Accurately ripped
13   | (3/3) Accurately ripped
14   | (3/3) Accurately ripped


==== Log checksum DED08E825FBDADA8D4CB8A578CBE8B9749C329E0B9C18D0F75EEB365BBFB7574 ====
-------------------------------------------------------------------------------------------------------------------------



【本資源使用RAR5打包,煩請使用RAR5.0版以上解包】
【自購資源,未經許可,禁止任何形式轉載】
【已添加5%修複紀錄,若解壓失敗,請修複損壞的分割檔再解壓。】
【若修複失敗請重新下載該文件。】

百度網盤(考慮到百度雲的加密系統過于薄弱,鏈接不放在外面。不便之處,還請諒解。)
购买主题 已有 1 人购买  本主题需向作者支付 5 资币 才能浏览
您需要登录后才可以回帖 登录 | 欢迎注册

本版积分规则

手机版|萌动动漫论坛 ( 鄂ICP备14000601号 )

JS of wanmeiff.com and vcpic.com Please keep this copyright information, respect of, thank you!JS of wanmeiff.com and vcpic.com Please keep this copyright information, respect of, thank you!

GMT+8, 2017-7-24 02:42 , Processed in 0.034618 second(s), 17 queries , Gzip On, Redis On.

Powered by Discuz! X3.3 Designed by 999test.cn

© 2001-2013 Comsenz Inc.

鄂公网安备 42062502000002号