查看: 298|回复: 13
收起左侧

【种子】你的名字。BD-remux 1080P[24.9G]

[复制链接]

4

主题

40

帖子

182

积分

用户组:萌漫随行

节操
10
资币
2126
萌点
2488
活跃
170
贡献
16
推广
0
在线时间
37 小时
注册时间
2017-5-25
发表于 2017-7-28 19:05:13 | 显示全部楼层 |阅读模式

萌动很平凡,希望您能喜欢这里,速度舰个账号一起愉快地玩耍poi~

您需要 登录 才可以下载或查看,没有帐号?欢迎注册

x
本帖最后由 Ivean 于 2017-7-31 15:14 编辑

目前能够得到的最高清版本你的名字(4K版由于没有破解AACS2.0,所以没法导出)

Remux版即为蓝光原盘直接封装成mkv的版本,数据完全一样,播放更方便。
自带简体中文字幕和6声道flac音轨(压制组为什么不用更加省空间的dts我实在搞不懂)
游客,如果您要查看本帖隐藏内容请回复


==========================下面为文件信息==================================

General
Unique ID                      : 191914073231498614901214262416305876692 (0x90614E588B79A2B9A91BF1112D54EED4)
Format                         : Matroska
Format version                 : Version 4 / Version 2
File size                      : 24.9 GiB
Duration                       : 1 h 46 min
Overall bit rate mode          : Variable
Overall bit rate               : 33.4 Mb/s
Movie name                     : Kimi no Na wa. (2016)
Encoded date                   : UTC 2017-07-25 07:10:27
Writing application            : mkvmerge v8.3.0 ('Over the Horizon') 32bit
Writing library                : libebml v1.3.1 + libmatroska v1.4.2

Video
ID                             : 1
Format                         : AVC
Format/Info                    : Advanced Video Codec
Format profile                 : [email protected]
Format settings, CABAC         : Yes
Format settings, ReFrames      : 4 frames
Codec ID                       : V_MPEG4/ISO/AVC
Duration                       : 1 h 46 min
Bit rate mode                  : Variable
Bit rate                       : 30.4 Mb/s
Maximum bit rate               : 35.0 Mb/s
Width                          : 1 920 pixels
Height                         : 1 080 pixels
Display aspect ratio           : 16:9
Frame rate mode                : Constant
Frame rate                     : 23.976 (24000/1001) FPS
Color space                    : YUV
Chroma subsampling             : 4:2:0
Bit depth                      : 8 bits
Scan type                      : Progressive
Bits/(Pixel*Frame)             : 0.611
Stream size                    : 22.6 GiB (91%)
Title                          : Kimi no Na wa. (2016)
Default                        : No
Forced                         : No

Audio
ID                             : 2
Format                         : FLAC
Format/Info                    : Free Lossless Audio Codec
Codec ID                       : A_FLAC
Duration                       : 1 h 46 min
Bit rate mode                  : Variable
Bit rate                       : 2 995 kb/s
Channel(s)                     : 6 channels
Channel positions              : Front: L C R, Side: L R, LFE
Sampling rate                  : 48.0 kHz
Frame rate                     : 11.719 FPS (4096 spf)
Bit depth                      : 24 bits
Stream size                    : 2.23 GiB (9%)
Title                          : Japanese 5.1 24bit
Writing library                : libFLAC 1.2.1 (UTC 2007-09-17)
Language                       : Japanese
Default                        : Yes
Forced                         : No

Text #1
ID                             : 3
Format                         : PGS
Muxing mode                    : zlib
Codec ID                       : S_HDMV/PGS
Codec ID/Info                  : Picture based subtitle format used on BDs/HD-DVDs
Duration                       : 1 h 45 min
Bit rate                       : 17.3 kb/s
Count of elements              : 3515
Stream size                    : 13.1 MiB (0%)
Title                          : Japanese
Language                       : Japanese
Default                        : Yes
Forced                         : No

Text #2
ID                             : 4
Format                         : PGS
Muxing mode                    : zlib
Codec ID                       : S_HDMV/PGS
Codec ID/Info                  : Picture based subtitle format used on BDs/HD-DVDs
Duration                       : 1 h 45 min
Bit rate                       : 9 913 b/s
Count of elements              : 2456
Stream size                    : 7.48 MiB (0%)
Title                          : English
Language                       : English
Default                        : No
Forced                         : Yes

Text #3
ID                             : 5
Format                         : PGS
Muxing mode                    : zlib
Codec ID                       : S_HDMV/PGS
Codec ID/Info                  : Picture based subtitle format used on BDs/HD-DVDs
Duration                       : 1 h 45 min
Bit rate                       : 13.5 kb/s
Count of elements              : 2919
Stream size                    : 10.2 MiB (0%)
Title                          : Chinese
Language                       : Chinese
Default                        : No
Forced                         : No

Text #4
ID                             : 6
Format                         : PGS
Muxing mode                    : zlib
Codec ID                       : S_HDMV/PGS
Codec ID/Info                  : Picture based subtitle format used on BDs/HD-DVDs
Duration                       : 1 h 45 min
Bit rate                       : 8 882 b/s
Count of elements              : 2297
Stream size                    : 6.70 MiB (0%)
Title                          : English
Language                       : English
Default                        : No
Forced                         : No
回复

使用道具 举报

已抛锚 成长值: 326

0

主题

6

帖子

33

积分

用户组:萌漫随行

节操
0
资币
519
萌点
855
活跃
34
贡献
3
推广
0
在线时间
7 小时
注册时间
2017-7-21
发表于 2017-7-28 21:18:54 | 显示全部楼层
厉害,我一直都想要bd的你的名字,有资源我就不用买光盘了。

4

主题

40

帖子

182

积分

用户组:萌漫随行

节操
10
资币
2126
萌点
2488
活跃
170
贡献
16
推广
0
在线时间
37 小时
注册时间
2017-5-25
 楼主| 发表于 2017-7-28 22:19:20 | 显示全部楼层
zbhm88 发表于 2017-7-28 21:18
厉害,我一直都想要bd的你的名字,有资源我就不用买光盘了。

这个只包含电影部分,对于一般高清爱好者已经足够。但对于粉丝的话,还是下载153G 的iso版或买正版更加合适

0

主题

29

帖子

99

积分

用户组:萌漫随行

节操
10
资币
943
萌点
921
活跃
107
贡献
4
推广
0
在线时间
12 小时
注册时间
2017-6-30
发表于 2017-7-29 01:27:29 | 显示全部楼层
我去,牛逼的资源啊

0

主题

75

帖子

827

积分

用户组:萌音我爱

节操
10
资币
818
萌点
16425
活跃
981
贡献
5
推广
0
在线时间
256 小时
注册时间
2014-9-27

我的妹妹妮可我爱美少女萌动一周年庆勋章最佳新人栗山未来小埋若菜羽衣若狭悠里海老名白雪公主左苍慈活跃会员

发表于 2017-7-29 02:51:25 | 显示全部楼层
153G  想想都觉得可怕啊

1

主题

41

帖子

148

积分

用户组:萌漫随行

节操
10
资币
31
萌点
1609
活跃
158
贡献
3
推广
1
在线时间
23 小时
注册时间
2017-2-10

我爱美少女小埋妮可栗山未来若菜羽衣左苍慈若狭悠里海老名白雪公主我的妹妹

发表于 2017-7-29 16:58:56 | 显示全部楼层
谢谢楼主,不想去影院看呢

1

主题

9

帖子

31

积分

用户组:萌懵懂懂

节操
0
资币
8
萌点
386
活跃
33
贡献
1
推广
0
在线时间
3 小时
注册时间
2017-7-15
发表于 2017-7-29 18:54:25 | 显示全部楼层
的搜索算法反反复复反反复复反反复复反反复复

2

主题

124

帖子

510

积分

用户组:萌入心扉

节操
10
资币
370
萌点
7565
活跃
577
贡献
4
推广
0
在线时间
91 小时
注册时间
2015-10-16
发表于 2017-7-29 22:44:47 | 显示全部楼层
不愧是原盘`真大`_(:з)∠)_
您需要登录后才可以回帖 登录 | 欢迎注册

本版积分规则

手机版|萌动动漫论坛 ( 鄂ICP备14000601号 )

JS of wanmeiff.com and vcpic.com Please keep this copyright information, respect of, thank you!JS of wanmeiff.com and vcpic.com Please keep this copyright information, respect of, thank you!

GMT+8, 2017-8-24 09:13 , Processed in 0.049081 second(s), 28 queries , Gzip On, Redis On.

Powered by Discuz! X3.3 Designed by 999test.cn

© 2001-2013 Comsenz Inc.

鄂公网安备 42062502000002号